Александр Ширвиндт. Ирония спасает от всего (2019) HDTVRip скачать торрент

Телекомпания: Первый канал
Жанр: Биография, Телепередача
Участники: Александр Ширвиндт, Михаил Ширвиндт

Описание

Популярный актер, режиссер, педагог, художественный руководитель Московского театра Сатиры, а теперь еще и блогер - все это Александр Ширвиндт! Человек с уникальным чувством юмора, сам Ширвиндт характеризует себя так: Я - глубоко пьющий и активно матерящийся русский интеллигент с еврейскими корнями, который мечтает лежать в ногу со временем… Ну кто кроме Ширвиндта может заявить о себе с такой иронией?
Релиз от: Robbertta
Продолжительность: 00: 49: 47
Качество видео: HDTVRip
Субтитры: отсутствуют
Видео: Xvid, 720x400, 1943 Кбит/с
Аудио: MP3, 2 ch, 192 Кбит/с
Общее
Полное имя : C: \Users\User\Downloads\Александр Ширвиндт. Ирония спасает от всего.avi
Формат : AVI
Формат/Информация : Audio Video Interleave
Размер файла : 765 Мбайт
Продолжительность : 49 м. 47 с.
Общий поток : 2148 Кбит/сек
Программа кодирования : Lavf54.63.104
Видео
Идентификатор : 0
Формат : xvid
Идентификатор кодека : xvid
Продолжительность : 49 м. 47 с.
Битрейт : 1943 Кбит/сек
Ширина : 720 пикселей
Высота : 400 пикселей
Соотношение сторон : 16: 9
Частота кадров : 25, 000 кадров/сек
Тип развёртки : Прогрессивная
Бит/(Пиксели*Кадры) : 0.270
Размер потока : 692 Мбайт (90%)
Аудио
Идентификатор : 1
Формат : MPEG Audio
Версия формата : Version 1
Профиль формата : Layer 3
Настройки формата : Joint stereo/MS Stereo
Идентификатор кодека : 55
Идентификатор кодека/Подсказка : MP3
Продолжительность : 49 м. 47 с.
Вид битрейта : Постоянный
Битрейт : 192 Кбит/сек
Каналы : 2 канала
Частота : 48, 0 КГц
Метод сжатия : С потерями
Размер потока : 68, 4 Мбайт (9%)
Выравнивание : Соединение по промежуткам
Продолжительность промежутка : 24 мс. (0, 60 видеокадр)
Библиотека кодирования : LAME3.99.5

Скриншоты для ознакомления



Все одноименные релизы в Клубе
Время раздачи: 24/7 (до появления первых 3-5 скачавших)
Скачать торрент aleksandr-shirvindt-ironiya-spasa.torrent
Support: support@vinlp.net